Login
Username:
Password:
[Signup]
[Recover Account]


Browse Torrents

Poll


You must be logged in to view polls



Latest Torrents
86th.Annual.Christ...
- [Size: 962.56 MB]

Gold.Rush.S09E06.H...
- [Size: 353.33 MB]

Who.Wants.to.Be.a....
- [Size: 168.97 MB]

Who.Wants.to.Be.a....
- [Size: 177.09 MB]

Nightflyers.S01.WE...
- [Size: 3.64 GB]


Torrent Details For "The Meg.2018.1080p.BRRip.x264.AAC.5.1.-.DownloadHD"

The Meg.2018.1080p.BRRip.x264.AAC.5.1.-.DownloadHD

Download this torrent | Magnet Download
Health:
Seeds: 84
Leechers: 76
Completed: 1,130 
Last Checked: 10-11-2018 15:31:00
External Torrent
Update Stats



Images Host

Poster
No poster


Watch-Free-HD     Download

Details
Name:The Meg.2018.1080p.BRRip.x264.AAC.5.1.-.DownloadHD
Description:




       

Format                      : Matroska
Format version              : Version 4
File size                   : 2.18 GiB
Duration                    : 1 h 53 min
Overall bit rate            : 2 755 kb/s
Movie name                  : The Meg.2018.1080p.BRRip.x264.AAC.5.1.-.DownloadHD


Video
ID                          : 1
Format                      : AVC
Format/Info                 : Advanced Video Codec
Format profile              : [email protected]
Format settings             : CABAC / 8 Ref Frames
Format settings, CABAC      : Yes
Format settings, ReFrames   : 8 frames
Codec ID                    : V_MPEG4/ISO/AVC
Duration                    : 1 h 53 min
Bit rate                    : 2 500 kb/s
Width                       : 1 920 pixels
Height                      : 800 pixels
Display aspect ratio        : 2.40:1
Frame rate mode             : Constant
Frame rate                  : 23.976 (24000/1001) FPS
Color space                 : YUV
Chroma subsampling          : 4:2:0
Bit depth                   : 8 bits
Scan type                   : Progressive

Audio
ID                          : 2
Format                      : AAC LC
Format/Info                 : Advanced Audio Codec Low Complexity
Codec ID                    : A_AAC-2
Duration                    : 1 h 53 min
Bit rate                    : 323 kb/s
Channel(s)                  : 6 channels
Channel layout              : C L R Ls Rs LFE
Sampling rate               : 48.0 kHz
Frame rate                  : 46.875 FPS (1024 SPF)
Compression mode            : Lossy
Delay relative to video     : 9 ms
Stream size                 : 262 MiB (12%)
Title                       : DownloadHD.org
Language                    : English

Text
ID                          : 3
Format                      : UTF-8
Codec ID                    : S_TEXT/UTF8
Codec ID/Info               : UTF-8 Plain Text
Duration                    : 1 h 41 min
Bit rate                    : 59 b/s
Count of elements           : 1622
Stream size                 : 44.6 KiB (0%)
Title                       : DownloadHD.org
Language                    : English


For more Exclusive & Quality Stuff Visit :: DownloadHD

 

Category:Movies > HDRips
Lang:English  English
Total Size:2.20 GB
Info Hash:919bab43cb1041d56aebcdfd7e26ca13e03d2271
Added By:Download
Date Added:08-11-2018 08:58:24
Downloads:72

Ratings:Not Yet Rated (Log in to rate it)


Tracker:
udp://tracker.coppersurfer.tk:6969/announce


File List: 


Comments

No comments still posted

Top
Copyright 2018 DownloadHD -|- Page Generated In 0.580130 secs.
-|- RSS Feed -|- Feed Info